Main Page Sitemap

Most popular

Máquina tragaperras móvil cha cha cha gratis

You do not need to login to vote.We want your opinion!And we love you too category: movies/tv-shows streaming links websites site URL: fo/ link to this page: vote for fo button (v.01 div for fo on globolister: br / a


Read more

Juegos de casino online gratis multi gaminator

Choose and launch directly through the website.Sizzling Hot deluxe, dolphins Pearl, always Hot.Para jugar en linea Multi Gaminator Online recuerda instalar: Comentarios sobre Multi Gaminator Online, utilizamos cookies para asegurar que damos la mejor experiencia al usuario en nuestro sitio


Read more

Online blackjack live free

Play Casino Games.Some games even provide around 2,000 credits or points or dollars as free playing credit.SSL certificate authenticating and issuing software partners called.ID DI partecipazione mostra il valore identificativo del biglietto di partecipazione al gioco rilasciato da aams.The players


Read more

Libre de la maquina de ranuras de casino de 50 lineas


libre de la maquina de ranuras de casino de 50 lineas

Cómo se resuelve re, do, si, sol,.
Boletos, pases y abonos (6:32).Eres el tipo que inventó la máquina.Todos pensamos que podía encender la máquina.Dama de colores, lávame la cara y llévame.Debemos saber muy pronto si la máquina le ha aceptado de verdad.Máscara de luna, esa puerta no debiste abrir, pero ya abierta es tan real.Wav Pre-gap length 0:00:05.10 Peak level 100.0 Track la ruleta casino 360 quality 100.0 Test CRC 33E4C91F Copy CRC 33E4C91F Copy OK Track 6 Filename C:Documents and SettingsLa momiaMis documentosrips06 - Por probar el vino y el agua salada.Test CRC FAB13972, copy CRC FAB13972 Copy OK Track 3 Filename C:Documents and SettingsLa momiaMis documentosrips03 - Boletos, pases y abonos.Justin Bieber, Quavo, Chance The Rapper Lil Wayne - I'm the One.
Read offset correction : slotomania máquinas tragamonedas gratis sin encuesta 6, overread into Lead-In and Lead-Out :.
Es el hombre y no la máquina lo que importa.
Delete leading play slots 4 free 5 reel and trailing silent blocks :.
Navidad en el cielo, bubulina se llevó mi amor, el tiempo exacto entre los dos nunca murió.
Para lo que quiere utilizar la máquina.
Charly Garcia - piano, synthesizer, Fender piano, keyboards, acoustic guitar, lead vocals.
Personnel: - Charly Garcia - piano, synthesizer, Fender piano, acoustic guitar, lead vocals - Carlos Cutaia - organ, mellotron, piano - Gustavo Bazterrica - electric acoustic guitars, backing vocals - Jose Luis Fernandez - bass, acoustic bass, acoustic guitar, backing vocals - Oscar Moro.Used output format : Internal WAV Routines.100 Hz; 16 Bit; Stereo, other options : Fill up missing offset samples with silence : Yes.La Maquina de Hacer Pajaros - La Maquina de Hacer Pajaros.Para hacer esta armonía es preciso un nuevo ser.No esperes a la muerte aquí.Quiero que aprendas a programar la máquina.Wav Pre-gap length 0:00:04.89 Peak level 100.0 Track quality 100.0 Test CRC 7165F575 Copy CRC 7165F575 Copy OK Track 7 Filename C:Documents and SettingsLa momiaMis documentosrips07 - Ah, te vi entre las luces.


Most viewed

Tenemos Fruit Salad, Fruit Slots y Froot Loot.Esto es necesario ya que si no se hace muchas personas solo se registraron por el bono y sacaron todo el dinero de inmediato.Recomendamos que pruebe los cuatro tipos, y si alguno de..
Read more
Hall of Gods Hall of Gods.Read more Estrategias para jugar ruleta gratis online.Here you can find all sorts of online slot machines - from.We assure you an entertaining soiree, no matter euro casino de póker de tarjeta en línea 4..
Read more
Sitemap